Courriel:
    Password:
 
  Oublier votre mot de passe ?


Ajouter un ArticleInscriptionAnnuaireForumActivitésContact
--- Quebec Warez 2011-2014 ---    BitCoin: 1GuELj4fknBfouJk6vphCFfnvh59hWuNAa

Ted 2 2015 UNCENSORED 1080p HC WEBRip x264 AAC2 0-RARBG



Ad

  • Ted 2 2015 UNCENSORED 1080p HC WEBRip x264 AAC2 0-RARBG
  • Ted 2 2015 UNCENSORED 1080p HC WEBRip x264 AAC2 0-RARBG
  • Ted 2 2015 UNCENSORED 1080p HC WEBRip x264 AAC2 0-RARBG

Taille: 3.8gb



Posté: le 15 juillet 2015



Vues: 3065



Uploader: Legrand



Technique



Information du torrent




Descriptions


[mediainfo]
Video
ID : 1
Format : AVC
Format/Info : Advanced Video Codec
Format profile : High@L4.1
Format settings, CABAC : Yes
Format settings, ReFrames : 4 frames
Codec ID : avc1
Codec ID/Info : Advanced Video Coding
Duration : 1h 55mn
Bit rate : 4 500 Kbps
Width : 1 920 pixels
Height : 800 pixels
Display aspect ratio : 2.40:1
Frame rate mode : Constant
Frame rate : 23.976 fps
Color space : YUV
Chroma subsampling : 4:2:0
Bit depth : 8 bits
Scan type : Progressive
Bits/(Pixel*Frame) : 0.122
Stream size : 3.61 GiB (95%)
Title : Ted.2.2015.UNCENSORED.1080p.HC.WEBRip.x264.AAC2.0-RARBG
Writing library : x264 core 144 r2525M 40bb568
Encoding settings : cabac=1 / ref=4 / deblock=1:0:0 / analyse=0x3:0x113 / me=umh / subme=7 / psy=1 / psy_rd=1.00:0.15 / mixed_ref=1 / me_range=16 / chroma_me=1 / trellis=1 / 8x8dct=1 / cqm=0 / deadzone=21,11 / fast_pskip=1 / chroma_qp_offset=-3 / threads=40 / lookahead_threads=8 / sliced_threads=0 / nr=0 / decimate=1 / interlaced=0 / bluray_compat=0 / constrained_intra=0 / bframes=3 / b_pyramid=2 / b_adapt=2 / b_bias=0 / direct=3 / weightb=1 / open_gop=0 / weightp=2 / keyint=250 / keyint_min=25 / scenecut=40 / intra_refresh=0 / rc_lookahead=50 / rc=abr / mbtree=1 / bitrate=4500 / ratetol=1.0 / qcomp=0.60 / qpmin=0 / qpmax=69 / qpstep=4 / ip_ratio=1.40 / aq=1:1.00







Audio
ID : 2
Format : AAC
Format/Info : Advanced Audio Codec
Format profile : LC
Codec ID : 40
Duration : 1h 55mn
Bit rate mode : Constant
Bit rate : 224 Kbps
Channel(s) : 2 channels
Channel positions : Front: L R
Sampling rate : 48.0 KHz
Compression mode : Lossy
Stream size : 185 MiB (5%)
Title : Ted.2.2015.UNCENSORED.1080p.HC.WEBRip.x264.AAC2.0-RARBG

Download

6 Commentaires


check78 (3) le 22 octobre 2016       0   


Merci
letank (6) le 04 mars 2016       0   

merci
NonIdentifie (198) le 10 octobre 2015       0   

merci !!!
NonIdentifie (198) le 17 septembre 2015       1   

en Français?
aetas (10) le 21 août 2015       0   

Votre texte en gras iciMER...MERCI

Votre texte en italic ici...bonne soirée
rockon03 (28) le 30 juillet 2015       0   

merci


:) :( :o :D :P :S :amour :dort :grrr

Captcha:
Code :