Courriel:
    Password:
 
  Oublier votre mot de passe ?


Ajouter un ArticleInscriptionAnnuaireForumActivitésContact
--- Quebec Warez 2011-2014 ---    BitCoin: 1GuELj4fknBfouJk6vphCFfnvh59hWuNAa

Trumbo 2015 DVDScr XVID AC3 HQ Hive-CM8



Ad

Taille: 1.7gb



Posté: le 27 décembre 2015



Vues: 656



Uploader: Legrand



Technique



Information du torrent




Descriptions


In 1947, Dalton Trumbo was Hollywood's top screenwriter, until he and other artists were jailed and blacklisted for their political beliefs.

Director: Jay Roach
Writers: John McNamara, Bruce Cook (book)
Stars: Bryan Cranston, Diane Lane, Helen Mirren
Genres: Biography | Drama
Country: USA
Language: English


Trumbo.2015.DVDScr.XVID.AC3.HQ.Hive-CM8

Thx Hive

CM8 Doing It Right The First Time

Source: DVD-Screener Big THX m8

Notes:
DVDScreener 13

Encode:
quality was nice on this.
All digital watermarks are removed.
Fixed brightness,contrast and rgb, and added sharpness.

got very nice
enjoy

Video: 720x384 @bitrate 1700 2pass
Audio: English AC3 2.0 Stereo
Sample: yes included

ps: i forgot to mention, plz support the producers and go to the cinema and watch them on a big screen too
thx



http://www.imdb.com/title/tt3203606/


General
Complete name : Trumbo.2015.DVDScr.XVID.AC3.HQ.Hive-CM8.avi
Format : AVI
Format/Info : Audio Video Interleave
File size : 1.71 GiB
Duration : 2h 4mn
Overall bit rate : 1 968 Kbps
Writing application : Nandub v1.0rc2
Writing library : Nandub build 1853/release

Video
ID : 0
Format : MPEG-4 Visual
Format profile : Advanced Simple@L5
Format settings, BVOP : 2
Format settings, QPel : Yes
Format settings, GMC : No warppoints
Format settings, Matrix : Default (H.263)
Muxing mode : Packed bitstream
Codec ID : XVID
Codec ID/Hint : XviD
Duration : 2h 4mn
Bit rate : 1 700 Kbps
Width : 720 pixels
Height : 384 pixels
Display aspect ratio : 1.85:1
Frame rate : 29.970 fps
Color space : YUV
Chroma subsampling : 4:2:0
Bit depth : 8 bits
Scan type : Progressive
Compression mode : Lossy
Bits/(Pixel*Frame) : 0.205
Stream size : 1.47 GiB (86%)
Writing library : XviD 1.2.1 (UTC 2008-12-04)

Audio
ID : 1
Format : AC-3
Format/Info : Audio Coding 3
Mode extension : CM (complete main)
Format settings, Endianness : Big
Codec ID : 2000
Duration : 2h 4mn
Bit rate mode : Constant
Bit rate : 256 Kbps
Channel(s) : 2 channels
Channel positions : Front: L R
Sampling rate : 48.0 KHz
Bit depth : 16 bits
Compression mode : Lossy
Stream size : 227 MiB (13%)
Alignment : Split accross interleaves
Interleave, duration : 33 ms (1.00 video frame)
Interleave, preload duration : 500 ms

Download

0 Commentaires




:) :( :o :D :P :S :amour :dort :grrr

Captcha:
Code :