Courriel:
    Password:
 
  Oublier votre mot de passe ?


Ajouter un ArticleInscriptionAnnuaireForumActivitésContact
--- Quebec Warez 2011-2014 ---    BitCoin: 1GuELj4fknBfouJk6vphCFfnvh59hWuNAa

Bridge of Spies 2015 DVDScr XVID AC3 HQ Hive-CM8



Ad

Taille: 1.9gb



Posté: le 28 décembre 2015



Vues: 877



Uploader: Legrand



Technique



Information du torrent




Descriptions


During the Cold War, an American lawyer is recruited to defend an arrested Soviet spy in court, and then help the CIA facilitate an exchange of the spy for the Soviet captured American U2 spy plane pilot, Francis Gary Powers.

Director: Steven Spielberg
Writers: Matt Charman, Ethan Coen
Stars: Tom Hanks, Mark Rylance, Alan Alda
Genres: Biography | Drama | History | Thriller
Country: USA | Germany | India
Language: English | German | Russian


Bridge.of.Spies.2015.DVDScr.XVID.AC3.HQ.Hive-CM8

Thx Hive

CM8 Doing It Right The First Time

Source: DVD-Screener Big THX m8


Notes:
DVDScreener 10 of 40
will do them all one after each other, 10th hot title



Encode:

quality was perfect on this.
All digital watermarks are removed.
Fixed brightness,contrast and rgb, and added sharpness.

got very nice
enjoy

ps: i forgot to mention, plz support the producers and go to the cinema and watch them on a big screen too
thx

Video: 720x304 @bitrate 1700 2pass
Audio: English AC3 2.0 Stereo
Sample: yes included




http://www.imdb.com/title/tt3682448/



General
Complete name : Bridge.of.Spies.2015.DVDScr.XVID.AC3.HQ.Hive-CM8.avi
Format : AVI
Format/Info : Audio Video Interleave
File size : 1.94 GiB
Duration : 2h 21mn
Overall bit rate : 1 968 Kbps
Writing application : Nandub v1.0rc2
Writing library : Nandub build 1853/release

Video
ID : 0
Format : MPEG-4 Visual
Format profile : Advanced Simple@L5
Format settings, BVOP : 2
Format settings, QPel : Yes
Format settings, GMC : No warppoints
Format settings, Matrix : Default (H.263)
Muxing mode : Packed bitstream
Codec ID : XVID
Codec ID/Hint : XviD
Duration : 2h 21mn
Bit rate : 1 700 Kbps
Width : 720 pixels
Height : 304 pixels
Display aspect ratio : 2.35:1
Frame rate : 29.970 fps
Color space : YUV
Chroma subsampling : 4:2:0
Bit depth : 8 bits
Scan type : Progressive
Compression mode : Lossy
Bits/(Pixel*Frame) : 0.259
Stream size : 1.68 GiB (86%)
Writing library : XviD 1.2.1 (UTC 2008-12-04)

Audio
ID : 1
Format : AC-3
Format/Info : Audio Coding 3
Mode extension : CM (complete main)
Format settings, Endianness : Big
Codec ID : 2000
Duration : 2h 21mn
Bit rate mode : Constant
Bit rate : 256 Kbps
Channel(s) : 2 channels
Channel positions : Front: L R
Sampling rate : 48.0 KHz
Bit depth : 16 bits
Compression mode : Lossy
Stream size : 259 MiB (13%)
Alignment : Split accross interleaves
Interleave, duration : 33 ms (1.00 video frame)
Interleave, preload duration : 500 ms


Greetz

SugarB,iNCOMiNG,Izzy,MenaceIISociety,jiinx,SiMPLE,CherryBomb,bigguy79
ranbailey,ViSiON,UnKnOwN,YanKeeS,COPYxRIGHT,THC,VAiN,ACAB,DRs
LKRG,Kingstoner,SiMPLE,TiTAN,cadance,PLAYNOW
Unevano,BigVik,Rapeseed,SAFC,goldadvance,KaN1vE,Pinnz,Wayne,HiGH
SeeN,jtr,Limey,ICONiK,TED,rkofan,mrtoke09
Mr Hive

WONDER WHERE ALL THE OLD DDD FOLKS ARE DONT BE SCARED MESSAGE ME

LOOKING FOR ANYTHING YOU WANT TO LOOK AND SOUND BETTER

COME FIND US WE DONT BITE

CM8@hushmail.me

Download

0 Commentaires




:) :( :o :D :P :S :amour :dort :grrr

Captcha:
Code :