Courriel:
    Password:
 
  Oublier votre mot de passe ?


Ajouter un ArticleInscriptionAnnuaireForumActivitésContact
--- Quebec Warez 2011-2017 ---    BitCoin: 1GuELj4fknBfouJk6vphCFfnvh59hWuNAa

The Big Short 2015 DVDScr XviD AC3-P2P



Ad

Seeders: 19


Leechers: 7


Taille: 1.5gb


Posté: le 30 décembre 2015


Vues: 896


Uploader: Legrand



Technique

Download




Information du torrent




Descriptions


Format : AVI
Format/Info : Audio Video Interleave
File size : 1.52 GiB
Duration : 2h 10mn
Overall bit rate : 1 668 Kbps
Writing application : Nandub v1.0rc2
Writing library : Nandub build 1853/release

Video
ID : 0
Format : MPEG-4 Visual
Format profile : Advanced Simple@L5
Format settings, BVOP : 2
Format settings, QPel : Yes
Format settings, GMC : No warppoints
Format settings, Matrix : Default (H.263)
Muxing mode : Packed bitstream
Codec ID : XVID
Codec ID/Hint : XviD
Duration : 2h 10mn
Bit rate : 1 401 Kbps
Width : 720 pixels
Height : 288 pixels
Display aspect ratio : 2.500
Frame rate : 29.970 (30000/1001) fps
Color space : YUV
Chroma subsampling : 4:2:0
Bit depth : 8 bits
Scan type : Progressive
Compression mode : Lossy
Bits/(Pixel*Frame) : 0.225
Stream size : 1.27 GiB (84%)
Writing library : XviD 1.2.1 (UTC 2008-12-04)

Audio
ID : 1
Format : AC-3
Format/Info : Audio Coding 3
Mode extension : CM (complete main)
Format settings, Endianness : Big
Codec ID : 2000
Duration : 2h 10mn
Bit rate mode : Constant
Bit rate : 256 Kbps
Channel(s) : 2 channels
Channel positions : Front: L R
Sampling rate : 48.0 KHz
Frame rate : 31.250 fps (1536 spf)
Compression mode : Lossy
Stream size : 238 MiB (15%)
Alignment : Split accross interleaves
Interleave, duration : 33 ms (1.00 video frame)
Interleave, preload duration : 500 ms

Download

0 Commentaires




:) :( :o :D :P :S :amour :dort :grrr

Captcha:
Code :