Courriel:
    Password:
 
  Oublier votre mot de passe ?


Ajouter un ArticleInscriptionAnnuaireForumActivitésContact
--- Quebec Warez 2011-2017 ---    BitCoin: 1GuELj4fknBfouJk6vphCFfnvh59hWuNAa

Legend 2015 DVDScr XVID AC3 HQ Hive-CM8



Ad

Seeders: 53


Leechers: 10


Taille: 1.8gb


Posté: le 21 décembre 2015


Vues: 1798


Uploader: Legrand



Technique

Download




Information du torrent




Descriptions


The film tells the story of the identical twin gangsters Reggie and Ronnie Kray, two of the most notorious criminals in British history, and their organised crime empire in the East End of London during the 1960s.

Director: Brian Helgeland
Writers: Brian Helgeland, John Pearson (book)
Stars: Tom Hardy, Emily Browning, Taron Egerton
Genres: Biography | Crime | Thriller
Country: UK | France
Language: English


Legend.2015.DVDScr.XVID.AC3.HQ.Hive-CM8

Thx Hive

CM8 Doing It Right The First Time

Source: DVD-Screener Big Thanks M8


Notes:

DVDScreener 3 of 40
will do them all one after each other, 3rd hot title

Encode:

Quality was perfect on this.


got very nice
enjoy

Video: 720x304 @bitrate 1600 2pass
Audio: English AC3 2.0 Stereo
Sample: yes included



http://www.imdb.com/title/tt3569230/


General
Complete name : Legend.2015.DVDScr.XVID.AC3.HQ.Hive-CM8.avi
Format : AVI
Format/Info : Audio Video Interleave
File size : 1.72 GiB
Duration : 2h 11mn
Overall bit rate : 1 865 Kbps
Writing application : Nandub v1.0rc2
Writing library : Nandub build 1853/release

Video
ID : 0
Format : MPEG-4 Visual
Format profile : Advanced Simple@L5
Format settings, BVOP : 2
Format settings, QPel : Yes
Format settings, GMC : No warppoints
Format settings, Matrix : Default (H.263)
Muxing mode : Packed bitstream
Codec ID : XVID
Codec ID/Hint : XviD
Duration : 2h 11mn
Bit rate : 1 597 Kbps
Width : 720 pixels
Height : 304 pixels
Display aspect ratio : 2.35:1
Frame rate : 29.970 (30000/1001) fps
Color space : YUV
Chroma subsampling : 4:2:0
Bit depth : 8 bits
Scan type : Progressive
Compression mode : Lossy
Bits/(Pixel*Frame) : 0.243
Stream size : 1.47 GiB (86%)
Writing library : XviD 1.2.1 (UTC 2008-12-04)

Audio
ID : 1
Format : AC-3
Format/Info : Audio Coding 3
Mode extension : CM (complete main)
Format settings, Endianness : Big
Codec ID : 2000
Duration : 2h 11mn
Bit rate mode : Constant
Bit rate : 256 Kbps
Channel(s) : 2 channels
Channel positions : Front: L R
Sampling rate : 48.0 KHz
Frame rate : 31.250 fps (1536 spf)
Compression mode : Lossy
Stream size : 241 MiB (14%)
Alignment : Split accross interleaves
Interleave, duration : 33 ms (1.00 video frame)
Interleave, preload duration : 500 ms


Greetz

SugarB,iNCOMiNG,Izzy,MenaceIISociety,jiinx,SiMPLE,CherryBomb,bigguy79
ranbailey,ViSiON,UnKnOwN,YanKeeS,COPYxRIGHT,THC,VAiN,ACAB,DRs
LKRG,Kingstoner,SiMPLE,TiTAN,cadance,PLAYNOW
Unevano,BigVik,Rapeseed,SAFC,goldadvance,KaN1vE,Pinnz,Wayne,HiGH
SeeN,jtr,Limey,ICONiK,TED,rkofan,mrtoke09
Mr Hive


Download

0 Commentaires




:) :( :o :D :P :S :amour :dort :grrr

Captcha:
Code :