Courriel:
    Password:
 
  Oublier votre mot de passe ?


Ajouter un ArticleInscriptionAnnuaireForumActivitésContact
--- Quebec Warez 2011-2014 ---    BitCoin: 1GuELj4fknBfouJk6vphCFfnvh59hWuNAa

Spotlight 2015 DVDScr XVID AC3 HQ Hive-CM8



Ad

Taille: 1.7gb



Posté: le 23 décembre 2015



Vues: 2111



Uploader: Legrand



Technique



Information du torrent




Descriptions


The true story of how the Boston Globe uncovered the massive scandal of child molestation and cover-up within the local Catholic Archdiocese, shaking the entire Catholic Church to its core.

Director: Tom McCarthy
Writers: Josh Singer, Tom McCarthy
Stars: Mark Ruffalo, Michael Keaton, Rachel McAdams
Genres: Biography | Drama | History | Thriller
Country: USA
Language: English


Spotlight.2015.DVDScr.XVID.AC3.HQ.Hive-CM8

Thx Hive

CM8 Doing It Right The First Time

Source: DVD-Screener Big THX m8


Notes:

DVDScreener 9 of 40
will do them all one after each other, 9th hot title


Encode:

quality was perfect on this.
All digital watermarks are removed.
Fixed brightness,contrast and rgb, and added sharpness.

got very nice
enjoy

ps: i forgot to mention, plz support the producers and go to the cinema and watch them on a big screen too
thx

Video: 720x400 @bitrate 1600 2pass
Audio: English AC3 2.0 Stereo
Sample: yes included



http://www.imdb.com/title/tt1895587/



General
Complete name : Spotlight.2015.DVDScr.XVID.AC3.HQ.Hive-CM8.avi
Format : AVI
Format/Info : Audio Video Interleave
File size : 1.69 GiB
Duration : 2h 8mn
Overall bit rate : 1 878 Kbps
Writing application : Nandub v1.0rc2
Writing library : Nandub build 1853/release

Video
ID : 0
Format : MPEG-4 Visual
Format profile : Advanced Simple@L5
Format settings, BVOP : 2
Format settings, QPel : Yes
Format settings, GMC : No warppoints
Format settings, Matrix : Default (H.263)
Muxing mode : Packed bitstream
Codec ID : XVID
Codec ID/Hint : XviD
Duration : 2h 8mn
Bit rate : 1 610 Kbps
Width : 720 pixels
Height : 384 pixels
Display aspect ratio : 1.85:1
Frame rate : 29.970 fps
Color space : YUV
Chroma subsampling : 4:2:0
Bit depth : 8 bits
Scan type : Progressive
Compression mode : Lossy
Bits/(Pixel*Frame) : 0.194
Stream size : 1.45 GiB (86%)
Writing library : XviD 1.2.1 (UTC 2008-12-04)

Audio
ID : 1
Format : AC-3
Format/Info : Audio Coding 3
Mode extension : CM (complete main)
Format settings, Endianness : Big
Codec ID : 2000
Duration : 2h 8mn
Bit rate mode : Constant
Bit rate : 256 Kbps
Channel(s) : 2 channels
Channel positions : Front: L R
Sampling rate : 48.0 KHz
Bit depth : 16 bits
Compression mode : Lossy
Delay relative to video : 14ms
Stream size : 235 MiB (14%)
Alignment : Split accross interleaves
Interleave, duration : 33 ms (1.00 video frame)
Interleave, preload duration : 500 ms


Greetz



Download

0 Commentaires




:) :( :o :D :P :S :amour :dort :grrr

Captcha:
Code :